Bandes noires sur VLC Mac mais pas sur VLC Windows

Xo.xo

Membre confirmé
11 Avril 2018
23
0
31
Bonjour,

lorsque je regarde certaines vidéos depuis VLC que j'ai moi-même ripper de mes blu-ray :

sur Mac : j'aperçois des bandes noires tout autour de la vidéo quand je la mets en plein écran ce qui "rétrécit la vidéo". Quand je ne passe pas en mode plein écran, il n'y a pas les bandes noires autour.

sur Windows : il n'y a pas les bandes noires quand je lance la vidéo en plein écran depuis VLC.

Quelqu'un sait comment cela se fait et comment voir l'image en plein écran sans bandes noires autour ?
 

JLB21

Membre expert
Club MacG
22 Novembre 2007
5 927
616
Bonjour,

Avec le niveau de précision de ta question, cela va être difficile de te proposer des solutions :

- certaines vidéos : quelles sont leurs caractéristiques comparées à celles pour lesquelles il n'y a pas de bandes noires ?
- quelle est la définition de ton écran sous Windows et celle de ton écran de Mac ?
- que se passe-t-il sur Mac si tu utilises un autre player que VLC, par exemple IINA ?
 
  • J’aime
Réactions: Xo.xo

Xo.xo

Membre confirmé
11 Avril 2018
23
0
31
Avec IINA c'est la même chose et j'avais essayé plein d'autres lecteurs vidéos.
Pour la définition de mon écran sous Mac et Windows, je ne sais pas, comment voit-on cela ? En tout cas sur mon ordinateur de bureau et mon ancien ordinateur portable (tous les deux Windows), je n'avais pas ce soucis.
Concernant les vidéos, il s'agit parfois de blu-ray que j'ai rippé + des bobines que j'ai fait numériser en 1080p + un dessin animé que j'ai téléchargé sur Passion Repack.
 

JLB21

Membre expert
Club MacG
22 Novembre 2007
5 927
616
Sans informations précises, on ne peut rien conclure.
Pourrais-tu passer l'une de tes vidéos à problème et une sans problème sur iMediaHUD et nous donner l'analyse comparée qui en ressort ?
Peut-être cela permettra-t'il d'échafauder une hypothèse ?

De quel machine Apple disposes-tu ?
 

Xo.xo

Membre confirmé
11 Avril 2018
23
0
31
Je ferai ça dans la journée et je rapporterai les informations des analyses ici.
J'ai un Macbook pro 15 touch bar, le dernier.
 

Xo.xo

Membre confirmé
11 Avril 2018
23
0
31
Voici l'analyse pour une vidéo où il n'y a pas le problème :


General

Complete name : /Volumes/LaCie/Lilo Et Stich -Multi.1080p.mHDgz-Zone-telechargement.Ws.mp4

Format : MPEG-4

Format profile : Base Media

Codec ID : isom

File size : 2.77 GiB

Duration : 1h 25mn

Overall bit rate : 4 647 Kbps

Encoded date : UTC 1904-01-01 00:00:00

Tagged date : UTC 1904-01-01 00:00:00

Writing application : Lavf54.63.104



Video

ID : 1

Format : AVC

Format/Info : Advanced Video Codec

Format profile : High@L4.0

Format settings, CABAC : Yes

Format settings, ReFrames : 2 frames

Codec ID : avc1

Codec ID/Info : Advanced Video Coding

Duration : 1h 25mn

Bit rate : 4 259 Kbps

Width : 1 832 pixels

Height : 1 088 pixels

Display aspect ratio : 1.684

Frame rate mode : Constant

Frame rate : 23.976 fps

Color space : YUV

Chroma subsampling : 4:2:0

Bit depth : 8 bits

Scan type : Progressive

Bits/(Pixel*Frame) : 0.089

Stream size : 2.54 GiB (92%)

Writing library : x264 core 129

Encoding settings : cabac=1 / ref=2 / deblock=1:0:0 / analyse=0x3:0x113 / me=hex / subme=6 / psy=1 / psy_rd=1.00:0.00 / mixed_ref=1 / me_range=16 / chroma_me=1 / trellis=0 / 8x8dct=1 / cqm=0 / deadzone=21,11 / fast_pskip=1 / chroma_qp_offset=-2 / threads=4 / lookahead_threads=1 / sliced_threads=0 / nr=0 / decimate=1 / interlaced=0 / bluray_compat=0 / constrained_intra=0 / bframes=0 / weightp=2 / keyint=250 / keyint_min=25 / scenecut=40 / intra_refresh=0 / rc_lookahead=40 / rc=2pass / mbtree=1 / bitrate=4259 / ratetol=1.0 / qcomp=0.60 / qpmin=10 / qpmax=51 / qpstep=4 / cplxblur=20.0 / qblur=0.5 / ip_ratio=1.41 / aq=1:1.00

Encoded date : UTC 1904-01-01 00:00:00

Tagged date : UTC 1904-01-01 00:00:00



Audio

ID : 2

Format : AAC

Format/Info : Advanced Audio Codec

Format profile : LC

Codec ID : 40

Duration : 1h 25mn

Duration_FirstFrame : 64ms

Bit rate mode : Constant

Bit rate : 384 Kbps

Channel(s) : 2 channels

Channel(s)_Original : 6 channels

Channel positions : Front: L C R, Side: L R, LFE

Sampling rate : 48.0 KHz

Compression mode : Lossy

Stream size : 234 MiB (8%)







Voici maintenant une vidéo où il y a ce problème de bandes noires en mode plein écran :


General

Complete name : /Volumes/LaCie/Disney/Grands Classiques/65 - Lilo & Stitch.avi

Format : AVI

Format/Info : Audio Video Interleave

Format profile : OpenDML

File size : 2.78 GiB

Duration : 1h 25mn

Overall bit rate : 4 665 Kbps

Writing application : Lavf54.63.104



Video

ID : 0

Format : AVC

Format/Info : Advanced Video Codec

Format profile : High@L4.0

Format settings, CABAC : Yes

Format settings, ReFrames : 2 frames

Codec ID : H264

Duration : 1h 25mn

Bit rate : 4 403 Kbps

Width : 1 920 pixels

Height : 1 080 pixels

Display aspect ratio : 16:9

Frame rate mode : Variable

Frame rate : 23.976 fps

Color space : YUV

Chroma subsampling : 4:2:0

Bit depth : 8 bits

Scan type : Progressive

Bits/(Pixel*Frame) : 0.089

Stream size : 2.62 GiB (94%)

Writing library : x264 core 129

Encoding settings : cabac=1 / ref=2 / deblock=1:0:0 / analyse=0x3:0x113 / me=hex / subme=6 / psy=1 / psy_rd=1.00:0.00 / mixed_ref=1 / me_range=16 / chroma_me=1 / trellis=0 / 8x8dct=1 / cqm=0 / deadzone=21,11 / fast_pskip=1 / chroma_qp_offset=-2 / threads=4 / lookahead_threads=1 / sliced_threads=0 / nr=0 / decimate=1 / interlaced=0 / bluray_compat=0 / constrained_intra=0 / bframes=0 / weightp=2 / keyint=250 / keyint_min=25 / scenecut=40 / intra_refresh=0 / rc_lookahead=40 / rc=2pass / mbtree=1 / bitrate=4403 / ratetol=1.0 / qcomp=0.60 / qpmin=10 / qpmax=51 / qpstep=4 / cplxblur=20.0 / qblur=0.5 / ip_ratio=1.41 / aq=1:1.00



Audio

ID : 1

Format : MPEG Audio

Format version : Version 1

Format profile : Layer 3

Mode : Joint stereo

Codec ID : 55

Codec ID/Hint : MP3

Duration : 1h 25mn

Bit rate mode : Constant

Bit rate : 256 Kbps

Channel(s) : 2 channels

Sampling rate : 48.0 KHz

Compression mode : Lossy

Stream size : 156 MiB (5%)

Alignment : Aligned on interleaves
 

JLB21

Membre expert
Club MacG
22 Novembre 2007
5 927
616
Es-tu certain que ce n'est pas l'inverse ?

Car selon toi :
- la vidéo qui passe bien c'est la .mp4 avec une définition pour le moins curieuse de 1832 X 1088 et un display ratio de 1,684,
- celle qui ne passe pas bien est la .avi avec une définition standard de 1920 X 1080 et un display ratio de 16:9

Mais si tu n'as pas commis d'erreur, je ne comprends pas qu'un format parfaitement académique ne soit pas lu plein écran, et qu'un format peu commun le soit…

Sur mon écran Retina 5K, VLC lit les 16:9 plein écran, quel que soit le réglage Vidéo de VLC …

A moins que tu n'aies pas un écran 16:9 ?

Regarde les réglages Vidéo de VLC, peut-être qu'une modification sera-t-elle en mesure de régler ton problème d'une façon ou d'une autre…
 

Xo.xo

Membre confirmé
11 Avril 2018
23
0
31
Oui c'est bien ça, je ne me suis pas trompé.
Mon Macbook pro aussi avec VLC peut lire des vidéos plein écran quand il est en 16:9, c'est juste avec certaines vidéos que ça coince, là où cela ne coince absolument pas avec Windows media player.
J'ai également essayé dans les réglages VLC de passer en 16:9 et toutes les autres options qui étaient proposées mais rien n'y change ...
Merci pour ton aide en tout cas, c'est gentil.
 

Xo.xo

Membre confirmé
11 Avril 2018
23
0
31
Re,

j'ai surtout ce problème avec mes rip de blu-ray disney mais pas avec mes autres blu-ray.
J'ai réessayé de ripper un blu-ray disney depuis Mac cette fois, à l'aide de MakeMKV, et il y a encore ce problème de bandes noires. Par contre quand je visionne ma vidéo sous windows, aucun soucis. C'est quand même bizarre tout ça. Du coup je suis obligé de télécharger mes films disney sur internet car là la vidéo est pleine écran sans bandes noires.

J'ai mis 2 captures pour donner un exemple de mon problème.
La première sans le mode plein écran et donc sans bandes noires au-dessus et en dessous.
La deuxième en mode plein écran et avec les bandes noires en-haut et en-bas.

https://image.noelshack.com/fichiers/2018/18/5/1525457889-capture-d-ecran-2018-05-04-a-20-17-04.png

https://image.noelshack.com/fichiers/2018/18/5/1525457890-capture-d-ecran-2018-05-04-a-20-17-23.png
 

Xo.xo

Membre confirmé
11 Avril 2018
23
0
31
Je viens de convertir mon rip MakeMKV avec Handbrake et la vidéo ressort sans bandes noires. Génial !!!
Je comprends pas trop mais bon, je sais comment faire pour avoir mes vidéos sans bandes noires, du coup c'est le principal ^^