gestion des cue sheets

fredoking

Membre junior
12 Novembre 2005
18
0
bonjour,

je suis amateur dans l'édition sonore, et je croyais que les cue sheets avaient une syntaxe définie. Mais amadeus gère-t-il les cue sheets comme par exemple eac (du monde windows) ?

j'essaie de charger une cue générée par eac, et amadeus refuse, me disant qu'il n'y a pas de repères. Il y a des différences entre la cue d'eac et celle que peut générer amadeus, notamment index0 (eac) et offset (amadeus)

eac :
FILE "CDImage.flac" WAVE
TRACK 01 AUDIO
TITLE "Piste 01"
PERFORMER "xx"
INDEX 01 00:00:00
TRACK 02 AUDIO
TITLE "Piste 02"
PERFORMER "xx"
INDEX 00 21:08:00
INDEX 01 21:17:50


amadeus :
FILE "CDImage.flac" AIFF
TRACK 01 AUDIO
TITLE "Piste 01"
INDEX 01 00:01:33
REM OFFSET 10.929706
REM COLOR black
TRACK 02 AUDIO
TITLE "Piste 02"
INDEX 01 01:06:47
REM OFFSET 10.113379
REM COLOR black

merci de toute aide
 

bonnaphil

Support MacVF
Modérateur
Club MacG
27 Juin 2004
459
14
59
Var (83)
www.macvf.fr
> Mais amadeus gère-t-il les cue sheets
> comme par
> exemple eac (du monde windows) ?

-> Oui, cela devrait être la même chose.


J'ai fait un copier/coller de votre exemple dans un fichier texte et
j'ai essayé de l'importer avec AmadeusPro et ca a fonctionne
correctement
 

fredoking

Membre junior
12 Novembre 2005
18
0
merci beaucoup

j'ai en effet essayé de charger diverses cue dans amadeus, et ça se passe bien en général. Il y en a certaines cependant qui ne sont pas acceptées par amadeus, alors qu'elles passent avec eac. Javoue ne pas avoir vraiment cherché quelle syntaxe particulière provoquait l'erreur. Si j'en retrouve une et que vous êtes intéressé, je vous l'enverrai

merci de l'aide